Neville Medhora - AutoResponder Kourse

Neville Medhora - AutoResponder Kourse

Neville Medhora - AutoResponder Kourse
WEBRip | English | FLV + PDF Guide | 800 x 600 | AVC ~367 kbps | 15.016 fps
AAC | 84.6 Kbps | 44.1 KHz | 2 channels | ~2 hours | 964 MB
Genre: eLearning Video / Business, Sales, Marketing

So what we're talking about is autoresponders... Autoresponders are basically email robots that you set and forget‚ just once‚ and they do all the customer swooning for you. YOU KNOW THAT ANNOYING FRIEND YOU HAVE that only calls when he needs something? You HATE that guy!! It's also why people HATE getting emails from companies, because they only hit you up when they want to sell something. But what if you actually GAVE your customers GOOD stuff all the time?
You simply CANNOT pay attention to all those people individually!

HOWEVER....there's a Magical Slave Machine that can do the grunt work for you.

You can simply write emails like you're trying to swoon just ONE customer.....but it can be replicated over and over....
...and over

Your customers would actually:

get value from your emails.
look forward to getting your emails.
be much more open to buying $tuff from your emails.
see you (or your company) as the go to guys in your industry.
This is exactly how I use autoresponders for business.

Giving customers amazing information makes them MUCH more likely to listen to you, and eventually BUY from you.

Buuuttttt Neevvviillleeeeee.......I don't think autoresponders will work in MY industry!!

Stop your annoying whining....

...autoresponders can help pretty much ANY business you're in. In fact, we even go through REAL case studies in this

AutoresponderKourse, and even setup a REAL autoresponder in front of your face.

We go through examples of:

- Blog autoresponders
- eCommerce autoresponders
- Digital products autoresponders
- Consulting business autoresponders
- Even autoresponders for boring industries & businesses
- I'm gonna show you (right in front of your face) what kind of content works best for autoresponders.

FREE TIP: Really boring businesses can send out case studies in their autoresponders with great success.

AND IF YOU SUCK AT WRITING, I'm gonna even show you where to get great stuff your email list (and no, this isn't some spammy fake-article generation crap).

So if you have a list of contacts, and AREN'T regularly hitting them up with good stuff, I would HIIIIGGGHLY suggest you checkout this kourse.

Complete name                            : 4 - The New Aweber Email Creator.FLV
Format                                   : Flash Video
File size                                : 10.6 MiB
Duration                                 : 3mn 8s
Overall bit rate                         : 469 Kbps
Writing application                      : Wistia
Tagging application                      : Yet Another Metadata Injector for FLV - Version 1.8

Format                                   : AVC
Format/Info                              : Advanced Video Codec
Format profile                           : [email protected]
Format settings, CABAC                   : Yes
Format settings, ReFrames                : 3 frames
Codec ID                                 : 7
Duration                                 : 3mn 8s
Bit rate                                 : 367 Kbps
Nominal bit rate                         : 1 000 Kbps
Width                                    : 800 pixels
Height                                   : 600 pixels
Display aspect ratio                     : 4:3
Frame rate mode                          : Constant
Frame rate                               : 15.016 fps
Color space                              : YUV
Chroma subsampling                       : 4:2:0
Bit depth                                : 8 bits
Scan type                                : Progressive
Bits/(Pixel*Frame)                       : 0.051
Stream size                              : 8.48 MiB (80%)
Writing library                          : x264 core 122
Encoding settings                        : cabac=1 / ref=3 / deblock=1:0:0 / analyse=0x3:0x113 / me=hex / subme=7 / psy=0 / mixed_ref=1 / me_range=16 / chroma_me=1 / trellis=1 / 8x8dct=1 / cqm=0 / deadzone=21,11 / fast_pskip=1 / chroma_qp_offset=0 / threads=4 / sliced_threads=0 / nr=0 / decimate=1 / interlaced=0 / bluray_compat=0 / constrained_intra=0 / bframes=3 / b_pyramid=0 / b_adapt=1 / b_bias=0 / direct=1 / weightb=1 / open_gop=0 / weightp=2 / keyint=60 / keyint_min=25 / scenecut=40 / intra_refresh=0 / rc_lookahead=40 / rc=2pass / mbtree=1 / bitrate=1000 / ratetol=1.0 / qcomp=0.60 / qpmin=10 / qpmax=51 / qpstep=4 / cplxblur=20.0 / qblur=0.5 / ip_ratio=1.40 / aq=1:1.00

Format                                   : AAC
Format/Info                              : Advanced Audio Codec
Format profile                           : LC
Codec ID                                 : 10
Duration                                 : 3mn 8s
Bit rate                                 : 84.6 Kbps
Channel(s)                               : 2 channels
Channel positions                        : Front: L R
Sampling rate                            : 44.1 KHz
Compression mode                         : Lossy
Delay relative to video                  : 67ms
Stream size                              : 2.03 MiB (19%)


Neville Medhora - AutoResponder Kourse

Neville Medhora - AutoResponder Kourse

Neville Medhora - AutoResponder Kourse

Neville Medhora - AutoResponder Kourse

Alternate Link for Neville Medhora - AutoResponder Kourse.rar When above links are dead

Hello Respective Visitor!

Please Login or Create a FREE Account to gain accesss to hidden contents.


Would you like to leave your comment? Please Login to your account to leave comments. Don't have an account? You can create a free account now.